#TITLE:Wonderland;
#SUBTITLE:(KOG G3);
#ARTIST:X-Treme;
#TITLETRANSLIT:;
#SUBTITLETRANSLIT:;
#ARTISTTRANSLIT:;
#CREDIT:;
#BANNER:Wonderland-banner.png;
#BACKGROUND:Wonderland-bg.png;
#LYRICSPATH:;
#CDTITLE:;
#MUSIC:Wonderland (KOG G3).mp3;
#MUSICLENGTH:73.351;
#OFFSET:-0.080;
#SAMPLESTART:49.605;
#SAMPLELENGTH:12.000;
#SELECTABLE:YES;
#BPMS:0.000=140.000;
#STOPS:;
#BGCHANGES:;
#FIRSTBEAT:16.000;

#LASTBEAT:168.000;

#SONGFILENAME:Songs/ERICth MIX 2nd Style/wonderland/wonderland.sm;

#HASMUSIC:1;

#HASBANNER:1;


//---------------dance-single - MANIAC----------------
#NOTES:
     dance-single:
     MANIAC:
     hard:
     8:
     0.493,0.515,0.504,0.068,0.034,211.000,37.000,5.000,0.000,0.000:

0000
0000
0000
0000
,
0000
0000
0000
0000
,
0000
0000
0000
0000
,
0000
0000
0000
0000
,
0000
0000
0000
0000
,
1000
0001
1000
0010
1000
0001
1000
0010
,
0100
1000
0100
0010
0100
0001
0100
0010
,
1000
0001
1000
0010
1000
0001
1000
0010
,
0100
1000
0100
0010
0100
0001
0110
0000
,
0001
1000
0001
0100
0001
1000
0001
0100
,
0010
0100
0010
0100
0010
0100
0010
1000
,
0001
0100
0001
0100
0001
1000
1001
0000
,
1000
0000
0000
0001
0000
0000
1000
0000
0000
0001
0000
0000
1000
0000
0001
1000
0000
0000
1001
0000
0000
0000
0000
0000
,
1000
1000
1000
1000
,
1000
1000
1000
0001
,
1000
0010
1000
0010
1000
0010
1000
0000
,
0001
0100
0001
0100
0001
0100
0001
0000
,
1001
1100
0011
0110
,
1000
0001
0100
0010
0100
0001
1000
0000
,
1000
0001
1000
0001
,
1000
0001
0000
0001
1000
0000
1000
0001
0000
0001
1000
0000
,
1001
0100
0010
0000
1000
0001
1000
0000
,
0100
0010
0010
0000
0001
1000
0001
0000
,
0010
0100
0100
0000
1010
0000
0101
0000
,
0010
1000
0100
1000
0001
1000
0100
1000
,
0100
0100
0100
0100
,
0010
0100
0000
0100
0010
0000
0110
0000
,
1000
0001
1000
0001
1000
0001
1000
0001
,
0100
0010
0100
0010
0100
0010
0110
0000
,
1001
0000
1001
0000
0001
1000
0001
1000
,
1001
0000
1001
0000
0001
0100
1000
0100
,
0001
0010
1000
0100
,
2001
0001
3001
0000
,
0110
0000
0110
0000
0100
0010
0100
0010
,
0110
0000
0110
0000
0010
1000
0100
0001
,
0011
0101
1001
1001
,
2002
0000
0000
3003
,
1001
1000
0001
1000
,
1001
0001
1000
0001
,
1100
1100
0011
0011
,
0110
1000
0110
0000
1001
0100
1001
0000
,
2002
0000
0000
0000
,
3003
0000
0000
0000;

//---------------dance-single - ANOTHER----------------
#NOTES:
     dance-single:
     ANOTHER:
     medium:
     5:
     0.341,0.427,0.150,0.055,0.000,160.000,11.000,4.000,0.000,0.000:

0000
0000
0000
0000
,
0000
0000
0000
0000
,
0000
0000
0000
0000
,
0000
0000
0000
0000
,
2002
0000
0000
0000
0000
0000
3000
0003
,
0100
0010
0100
0001
,
0100
1000
0010
0100
,
0010
0100
0001
1000
,
0100
0000
1000
0000
0001
1000
0001
1000
,
0001
0001
0010
0100
,
1000
0000
0010
0001
,
0100
0100
0001
1000
,
0001
1000
0001
1000
0001
1000
0001
0000
,
0010
0010
0100
0100
,
0001
0000
1000
0100
0001
0000
0001
0000
,
0100
0000
0010
0000
0100
0010
0100
0000
,
0001
1000
0100
0100
,
0001
0000
1000
0000
,
0010
0010
0010
0010
,
0001
1000
0100
0001
,
0001
1000
0001
1001
,
1001
0010
1000
0100
,
0010
0001
0100
0000
,
0010
0001
0000
0001
0010
0000
0001
0000
,
0001
0010
0000
0010
0001
0000
0001
0000
,
1000
0001
0000
0001
1000
0000
1000
0000
,
0100
0010
0000
0010
0100
0000
0001
0000
,
1000
0001
0000
0001
1000
0000
0100
0000
,
0110
0110
0110
0110
,
0100
0000
0001
0000
1000
0100
0001
0100
,
1000
0000
0001
0000
1000
0010
0001
0010
,
1000
0100
0010
0100
,
0001
0000
0100
0000
1000
0010
0001
0010
,
0000
0010
0000
0010
0000
1000
0000
1000
,
0000
0100
0000
0100
0000
0001
0000
0001
,
0000
0010
0000
0010
0000
0010
0000
0010
,
0000
1000
0000
1000
0000
1000
0001
0000
,
1001
0000
0001
0000
1000
0000
0001
1000
,
0000
0001
0000
0000
,
1001
0100
0010
0010
,
0100
0000
0010
0000
0010
1000
0100
0000
,
1100
2200
0000
0000
0000
0000
3300
0000;

//---------------dance-single - BASIC----------------
#NOTES:
     dance-single:
     BASIC:
     easy:
     3:
     0.191,0.286,0.177,0.027,0.000,83.000,13.000,2.000,0.000,0.000:

0000
0000
0000
0000
,
0000
0000
0000
0000
,
0000
0000
0000
0000
,
0000
0000
0000
0000
,
0020
0000
0000
0000
,
0130
0000
0100
0000
,
0100
0000
0100
0000
,
0100
0000
0100
0000
,
0100
0000
0100
0000
,
0010
0000
0010
0000
,
0010
0000
0010
0000
,
0010
0000
0010
0000
,
0011
0000
1100
0000
,
0110
0000
0001
0000
,
1000
0000
0100
0000
,
0010
0000
0100
0000
,
0001
0000
1000
0000
,
0001
0000
1000
0000
,
0100
0000
0010
0000
,
0100
0000
0000
0000
,
0011
0000
1100
0000
,
0110
0000
0001
0000
,
1000
0000
0100
0001
,
0100
0100
0000
0000
,
0010
0000
0000
0000
,
1000
0000
0010
0000
,
1000
0000
0001
0000
,
0100
0000
0001
0000
,
0110
0000
1010
0000
,
0101
0001
1000
0100
,
0100
0000
0001
1000
,
0010
0010
0000
0000
,
0001
0000
1000
0001
,
0100
0000
0010
0100
,
0001
0000
0010
0100
,
1000
1000
0000
0000
,
0011
0000
1100
0000
,
0110
0001
0000
0000
,
0110
1000
0000
0000
,
0100
0100
0001
0001
,
0100
0100
1000
1000
,
0200
0000
0000
0000
,
0300
0000
0000
0000;
